<?xml version="1.0" standalone="no"?>
<!DOCTYPE svg PUBLIC "-//W3C//DTD SVG 1.1//EN" "http://www.w3.org/Graphics/SVG/1.1/DTD/svg11.dtd" >
<!--
2013-9-30: Created.
-->
<svg>
<metadata>
Created by iconfont
</metadata>
<defs>

<font id="iconfont" horiz-adv-x="1024" >
  <font-face
    font-family="iconfont"
    font-weight="500"
    font-stretch="normal"
    units-per-em="1024"
    ascent="896"
    descent="-128"
  />
    <missing-glyph />
    
    <glyph glyph-name="clear" unicode="&#59089;" d="M907.94666667 500.05333333l-157.01333334 47.78666667 61.44 238.93333333c0 6.82666667 0 20.48-6.82666666 27.30666667-6.82666667 6.82666667-13.65333333 13.65333333-20.48 13.65333333L634.88 868.69333333c-6.82666667 0-20.48 0-27.30666667 0C600.74666667 855.04 593.92 848.21333333 593.92 841.38666667L525.65333333 609.28 348.16 657.06666667c-6.82666667 0-20.48 0-27.30666667 0S307.2 636.58666667 307.2 629.76l-95.57333333-341.33333333C191.14666667 199.67999999999995 102.4 110.93333332999998 102.4 110.93333332999998c-6.82666667-6.82666667-13.65333333-20.48-6.82666667-34.13333333 0-13.65333333 13.65333333-20.48 27.30666667-27.30666667l559.78666667-150.18666666c0 0 6.82666667 0 6.82666666 0 6.82666667 0 20.48 6.82666667 27.30666667 13.65333333 6.82666667 6.82666667 88.74666667 95.57333333 122.88 191.14666667 34.13333333 88.74666667 95.57333333 348.16 95.57333333 354.98666666C935.25333333 479.57333333 921.6 493.22666667 907.94666667 500.05333333zM771.41333333 131.41333333c-27.30666667-61.44-75.09333333-122.88-95.57333333-157.01333333l-75.09333333 20.48c34.13333333 40.96 75.09333333 102.4 95.57333333 170.66666667 6.82666667 20.48-6.82666667 34.13333333-27.30666667 40.96-20.48 6.82666667-34.13333333-6.82666667-40.96-27.30666667-20.48-75.09333333-81.92-143.36-102.4-163.84l-61.44 13.65333333c34.13333333 40.96 75.09333333 102.4 88.74666667 163.84 6.82666667 20.48-6.82666667 34.13333333-27.30666667 40.96-20.48 6.82666667-34.13333333-6.82666667-40.96-27.30666666-20.48-68.26666667-75.09333333-136.53333333-95.57333333-163.84l-68.26666667 20.48c34.13333333 40.96 75.09333333 102.4 95.57333334 163.84 6.82666667 20.48-6.82666667 34.13333333-27.30666667 40.96C375.46666667 281.6 354.98666667 267.94666667 354.98666667 254.29333333c-20.48-68.26666667-75.09333333-136.53333333-102.4-163.84l-61.44 20.48c34.13333333 40.96 75.09333333 102.4 88.74666666 163.84l81.92 314.02666667 177.49333334-47.78666667c6.82666667 0 20.48 0 27.30666666 0C573.44 541.01333333 580.26666667 547.8399999999999 587.09333333 554.66666667L648.53333333 793.6l88.74666667-20.48-61.44-238.93333333c-6.82666667-20.48 6.82666667-34.13333333 20.48-40.96L853.33333333 445.44C839.68 370.34666667 798.72 192.85333333000005 771.41333333 131.41333333zM354.98666667 424.96C354.98666667 404.48 361.81333333 390.82666667 382.29333333 384l361.81333334-102.4c0 0 6.82666667 0 6.82666666 0 13.65333333 0 27.30666667 6.82666667 34.13333334 27.30666667 6.82666667 20.48-6.82666667 34.13333333-20.48 40.96L402.77333333 452.26666667C382.29333333 452.26666667 361.81333333 445.44 354.98666667 424.96z"  horiz-adv-x="1024" />

    
    <glyph glyph-name="weibiaoti46" unicode="&#58940;" d="M947-32.25L77-32.25c-24.75 0-45 20.25-45 44.25L32 755.25c0 24.75 20.25 44.25 45 44.25l870 0c24.75 0 45-20.25 45-44.25l0-743.25C992-12.75 971.75-32.25 947-32.25zM122 755.25c-24.75 0-45-20.25-45-44.25 0-24.75 20.25-44.25 45-44.25s45 20.25 45 44.25C167 735 146.75 755.25 122 755.25zM257 755.25c-24.75 0-45-20.25-45-44.25 0-24.75 20.25-44.25 45-44.25 24.75 0 45 20.25 45 44.25C302 735 281.75 755.25 257 755.25zM392 755.25c-24.75 0-45-20.25-45-44.25 0-24.75 20.25-44.25 45-44.25 24.75 0 45 20.25 45 44.25C437 735 416.75 755.25 392 755.25zM947 620.25L77 620.25l0-608.25 870 0L947 620.25zM365.75 504c4.5 4.5 11.25 4.5 15.75 0 4.5-4.5 4.5-11.25 0-15.75L224 331.5l157.5-156.75c4.5-4.5 4.5-11.25 0-15.75s-11.25-4.5-15.75 0l-165 165C198.5 325.5 197 328.5 197 331.5c0 3 0.75 6 3 8.25L365.75 504zM565.25 456.75c3 5.25 9.75 7.5 15 4.5 5.25-3 7.5-9 5.25-15l-127.5-240.75c-3-5.25-9.75-7.5-15-4.5-5.25 3-7.5 9-5.25 15L565.25 456.75zM642.5 504c4.5 4.5 11.25 4.5 15.75 0l165-165c2.25-2.25 3-5.25 3-8.25 0-3-0.75-6-3-8.25l-165-165c-4.5-4.5-11.25-4.5-15.75 0-4.5 4.5-4.5 11.25 0 15.75l157.5 157.5-157.5 157.5C638 492.75 638 499.5 642.5 504z"  horiz-adv-x="1024" />

    
    <glyph glyph-name="delete" unicode="&#58902;" d="M713.03417887 694.68918518l0 109.65500633c0 45.43372402-28.47374996 73.10333755-74.96747266 73.10333755L385.89674291 877.44752906c-46.42061972 0-74.93092057-27.66961354-74.93092056-73.10333755l0-109.65500633-219.31001264 0 0-73.10333754 73.10333754 0 0-621.37837037c0-65.86610725 41.2302826-109.65500633 109.65500633-109.65500633l475.17169527 0c66.85300175 0 109.65500633 40.64545633 109.65500633 109.65500633l0 621.37837037 73.10333753 0 0 73.10333754L713.03417887 694.68918518zM384.06915869 804.34419151l255.86168141 0-1.53516988-109.65500633L384.06915869 694.68918518 384.06915869 804.34419151zM786.13751641-36.34419150999997l-548.27503282 0 0 657.93003915 548.27503282 0L786.13751641-36.34419150999997zM457.17249623 548.48251009l-71.27575453 0-1.82758301-475.17169527 73.10333754 0L457.17249623 548.48251009zM639.93084131 548.48251009l-73.10333754 0 0-475.17169527 73.10333754 0L639.93084131 548.48251009z"  horiz-adv-x="1024" />

    
    <glyph glyph-name="fabu" unicode="&#58928;" d="M838.03463253 102.65792426999997L450.89088213 221.78168107l387.1459328 446.70726613-506.2696896-446.70726613L33.95937173 340.90325440000004 986.93960213 847.17294507 838.03463253 102.65792426999997 838.03463253 102.65792426999997zM450.89088213-76.02716480000004L450.89088213 132.43804479999994l119.11829867-59.56133227L450.89088213-76.02716480000004 450.89088213-76.02716480000004z"  horiz-adv-x="1024" />

    
    <glyph glyph-name="qingkonghuishouzhan" unicode="&#58946;" d="M837.182662-59.748546 192.403566-59.748546 59.530326 804.74974l900.284327 0-0.497327-3.500731L837.182662-59.748546zM197.67257-53.608709l634.17969 0L952.741561 798.609902 66.686307 798.609902 197.67257-53.608709zM349.320022 537.181264l325.091045-324.999108-4.340865-4.342093-325.091045 324.999108 4.340865 4.342093ZM670.894289 538.055825l4.340755-4.340755-326.74766-326.74766-4.340755 4.340755 326.74766 326.74766Z"  horiz-adv-x="1024" />

    
    <glyph glyph-name="code" unicode="&#58971;" d="M352.571429 96.571429l-28.571429-28.571429q-5.714286-5.714286-13.142857-5.714286t-13.142857 5.714286L31.428571 334.285714q-5.714286 5.714286-5.714285 13.142857t5.714285 13.142858l266.285715 266.285714q5.714286 5.714286 13.142857 5.714286t13.142857-5.714286l28.571429-28.571429q5.714286-5.714286 5.714285-13.142857t-5.714285-13.142857L128 347.428571l224.571429-224.571428q5.714286-5.714286 5.714285-13.142857t-5.714285-13.142857z m337.714285 609.714285L477.142857-31.428571q-2.285714-7.428571-8.857143-11.142858T454.857143-44l-35.428572 9.714286q-7.428571 2.285714-11.142857 8.857143T406.857143-11.428571l213.142857 737.714285q2.285714 7.428571 8.857143 11.142857t13.428571 1.428572l35.428572-9.714286q7.428571-2.285714 11.142857-8.857143t1.428571-14z m375.428572-372l-266.285715-266.285714q-5.714286-5.714286-13.142857-5.714286t-13.142857 5.714286l-28.571428 28.571429q-5.714286 5.714286-5.714286 13.142857t5.714286 13.142857l224.571428 224.571428-224.571428 224.571429q-5.714286 5.714286-5.714286 13.142857t5.714286 13.142857l28.571428 28.571429q5.714286 5.714286 13.142857 5.714286t13.142857-5.714286l266.285715-266.285714q5.714286-5.714286 5.714285-13.142858t-5.714285-13.142857z"  horiz-adv-x="1097" />

    
    <glyph glyph-name="table" unicode="&#59155;" d="M329.142857 109.714286v109.714285q0 8-5.142857 13.142858t-13.142857 5.142857H128q-8 0-13.142857-5.142857t-5.142857-13.142858v-109.714285q0-8 5.142857-13.142857t13.142857-5.142858h182.857143q8 0 13.142857 5.142858t5.142857 13.142857z m0 219.428571V438.857143q0 8-5.142857 13.142857t-13.142857 5.142857H128q-8 0-13.142857-5.142857t-5.142857-13.142857v-109.714286q0-8 5.142857-13.142857t13.142857-5.142857h182.857143q8 0 13.142857 5.142857t5.142857 13.142857z m292.571429-219.428571v109.714285q0 8-5.142857 13.142858t-13.142858 5.142857H420.571429q-8 0-13.142858-5.142857t-5.142857-13.142858v-109.714285q0-8 5.142857-13.142857t13.142858-5.142858h182.857142q8 0 13.142858 5.142858t5.142857 13.142857zM329.142857 548.571429V658.285714q0 8-5.142857 13.142857t-13.142857 5.142858H128q-8 0-13.142857-5.142858t-5.142857-13.142857v-109.714285q0-8 5.142857-13.142858t13.142857-5.142857h182.857143q8 0 13.142857 5.142857t5.142857 13.142858z m292.571429-219.428572V438.857143q0 8-5.142857 13.142857t-13.142858 5.142857H420.571429q-8 0-13.142858-5.142857t-5.142857-13.142857v-109.714286q0-8 5.142857-13.142857t13.142858-5.142857h182.857142q8 0 13.142858 5.142857t5.142857 13.142857z m292.571428-219.428571v109.714285q0 8-5.142857 13.142858t-13.142857 5.142857h-182.857143q-8 0-13.142857-5.142857t-5.142857-13.142858v-109.714285q0-8 5.142857-13.142857t13.142857-5.142858h182.857143q8 0 13.142857 5.142858t5.142857 13.142857z m-292.571428 438.857143V658.285714q0 8-5.142857 13.142857t-13.142858 5.142858H420.571429q-8 0-13.142858-5.142858t-5.142857-13.142857v-109.714285q0-8 5.142857-13.142858t13.142858-5.142857h182.857142q8 0 13.142858 5.142857t5.142857 13.142858z m292.571428-219.428572V438.857143q0 8-5.142857 13.142857t-13.142857 5.142857h-182.857143q-8 0-13.142857-5.142857t-5.142857-13.142857v-109.714286q0-8 5.142857-13.142857t13.142857-5.142857h182.857143q8 0 13.142857 5.142857t5.142857 13.142857z m0 219.428572V658.285714q0 8-5.142857 13.142857t-13.142857 5.142858h-182.857143q-8 0-13.142857-5.142858t-5.142857-13.142857v-109.714285q0-8 5.142857-13.142858t13.142857-5.142857h182.857143q8 0 13.142857 5.142857t5.142857 13.142858z m73.142857 182.857142v-621.714285q0-37.714286-26.857142-64.571429t-64.571429-26.857143H128q-37.714286 0-64.571429 26.857143T36.571429 109.714286V731.428571q0 37.714286 26.857142 64.571429t64.571429 26.857143h768q37.714286 0 64.571429-26.857143t26.857142-64.571429z"  horiz-adv-x="1024" />

    
    <glyph glyph-name="diy-com-textarea" unicode="&#59679;" d="M872.24 326.06399999999996l-164.4-175.392h164.4zM156.848 609.9359999999999h51.408v-282.96H156.848zM930.08 716.832H418.304v-50.304h508.128v-562.032H418.304v-53.328h528.288c17.76 6.624 30.528 23.52 31.248 43.632V670.1759999999999a48.096 48.096 0 0 1-47.76 46.656zM97.664 104.49599999999998V666.528h320.592V716.832H94.016c-26.4 0-47.856-21.696-47.856-48.432v-1.872h0.096v-431.424l-0.096-64.8v-73.68c-0.048-20.208 12.432-38.304 31.344-45.408h340.8v53.328l-320.64-0.048zM872.24 326.06399999999996l-164.4-175.392h164.4zM156.848 609.9359999999999h51.408v-282.96H156.848z"  horiz-adv-x="1024" />

    
    <glyph glyph-name="zidingyishuju" unicode="&#58932;" d="M682.28 268.02c0-16.62 13.44-30.06 30.06-30.06h240.6a30.12 30.12 0 0 1 0 60.18h-240.6a30.12 30.12 0 0 1-30.12-30.12zM952.88 170.46000000000004H604.4a30.12 30.12 0 1 1 0-60.18h348.6a30.12 30.12 0 0 1 0 60.18zM952.88 42.17999999999995H484.4a30.12 30.12 0 1 1 0-60.18h468.6a30.12 30.12 0 0 1 0 60.18zM118.22 280.02l44.4-44.4 172.68-172.62 471.06 471c39.84 39.9 36.18 108.42-8.22 152.76l-63.3 63.36c-44.4 44.4-112.92 48.12-152.76 8.28L111.02 287.28 42.08 34.860000000000014a31.68 31.68 0 0 1 38.94-39l252.48 68.82-51.66 51.72-163.98-44.76 44.7 163.98-44.4 44.4zM632 708.42c15.12 15.12 41.16 13.68 57.96-3.12L753.32 642c16.8-16.92 18.24-42.9 3.06-58.02L684.2 511.8 559.76 636.12 632 708.42zM509.9 586.2l124.38-124.38L330.2 157.79999999999995 205.82 282.17999999999995l304.08 304.08z"  horiz-adv-x="1024" />

    
    <glyph glyph-name="json" unicode="&#59325;" d="M231.99999969 744h80.00000062v-79.99999969H231.99999969v-200.00000062a79.99999969 79.99999969 0 0 0-79.99999969-79.99999969 79.99999969 79.99999969 0 0 0 79.99999969-79.99999969v-200.00000062h80.00000062v-79.99999969H231.99999969c-42.79999969 10.8-79.99999969 36-79.99999969 79.99999969v160.00000031a79.99999969 79.99999969 0 0 1-79.99999969 79.99999969H32v80.00000062h40.00000031a79.99999969 79.99999969 0 0 1 79.99999969 79.99999969V664.00000031a79.99999969 79.99999969 0 0 0 79.99999969 79.99999969m560.00000062 0a79.99999969 79.99999969 0 0 0 79.99999969-79.99999969v-160.00000031a79.99999969 79.99999969 0 0 1 79.99999969-79.99999969h40.00000031v-80.00000062h-40.00000031a79.99999969 79.99999969 0 0 1-79.99999969-79.99999969v-160.00000031a79.99999969 79.99999969 0 0 0-79.99999969-79.99999969h-80.00000062v79.99999969h80.00000062v200.00000062a79.99999969 79.99999969 0 0 0 79.99999969 79.99999969 79.99999969 79.99999969 0 0 0-79.99999969 79.99999969V664.00000031h-80.00000062V744h80.00000062m-280.00000031-480a40.00000031 40.00000031 0 0 0 40.00000031-40.00000031 40.00000031 40.00000031 0 0 0-40.00000031-39.99999938 40.00000031 40.00000031 0 0 0-40.00000031 39.99999938 40.00000031 40.00000031 0 0 0 40.00000031 40.00000031m-160.00000031 0a40.00000031 40.00000031 0 0 0 40.00000031-40.00000031 40.00000031 40.00000031 0 0 0-40.00000031-39.99999938 40.00000031 40.00000031 0 0 0-39.99999938 39.99999938 40.00000031 40.00000031 0 0 0 39.99999938 40.00000031m320.00000062 0a40.00000031 40.00000031 0 0 0 39.99999938-40.00000031 40.00000031 40.00000031 0 0 0-39.99999938-39.99999938 40.00000031 40.00000031 0 0 0-40.00000031 39.99999938 40.00000031 40.00000031 0 0 0 40.00000031 40.00000031z"  horiz-adv-x="1024" />

    
    <glyph glyph-name="jilianxuanze" unicode="&#59029;" d="M128 384v288c0 16 12.8 32 32 32h384c19.2 0 32-12.8 32-32v-288c0-16-12.8-32-32-32h-32v-64h64c35.2 0 64 28.8 64 64v352c0 35.2-28.8 64-64 64h-448c-35.2 0-64-28.8-64-64v-352c0-35.2 28.8-64 64-64h192v64h-160c-16 0-32 12.8-32 32zM896 480h-192v-64h160c19.2 0 32-12.8 32-32v-288c0-16-12.8-32-32-32h-384c-19.2 0-32 12.8-32 32v288c0 16 12.8 32 32 32h32v64h-64c-35.2 0-64-28.8-64-64v-352c0-35.2 28.8-64 64-64h448c35.2 0 64 28.8 64 64v352c0 35.2-28.8 64-64 64z"  horiz-adv-x="1024" />

    
    <glyph glyph-name="icon_clone" unicode="&#58886;" d="M992.00149812-96H212.97528125V683.02621687h779.02621688zM272.900375-36.074906250000026h659.17602937V623.1011240600001H272.900375zM153.0501875 82.57677937999995H32.00149813V864h781.42322062V742.95131063h-62.32209656v58.72659187H94.32359562v-656.77902656H153.0501875v-62.32209656z"  horiz-adv-x="1025" />

    
    <glyph glyph-name="wenjianshangchuan" unicode="&#58903;" d="M909.01333333-40.10666666999998H101.12c-41.17333333 0-74.66666667 33.49333333-74.66666667 74.66666667V711.89333333c0 41.17333333 33.49333333 74.66666667 74.66666667 74.66666667h350.50666667c41.17333333 0 74.66666667-33.49333333 74.66666666-74.66666667 0-11.73333333-9.6-21.33333333-21.33333333-21.33333333s-21.33333333 9.6-21.33333333 21.33333333c0 17.70666667-14.29333333 32-32 32H101.12c-17.70666667 0-32-14.29333333-32-32v-677.33333333c0-17.70666667 14.29333333-32 32-32h807.89333333c11.73333333 0 21.33333333-9.6 21.33333334-21.33333333s-9.38666667-21.33333333-21.33333334-21.33333334zM909.01333333-40.10666666999998c-11.73333333 0-21.33333333 9.6-21.33333333 21.33333334s9.6 21.33333333 21.33333333 21.33333333c17.70666667 0 32 14.29333333 32 32V473.38666667c0 17.70666667-14.29333333 32-32 32H277.97333333c-17.70666667 0-32-14.29333333-32-32v-286.50666667c0-11.73333333-9.6-21.33333333-21.33333333-21.33333333s-21.33333333 9.6-21.33333333 21.33333333V473.38666667c0 41.17333333 33.49333333 74.66666667 74.66666666 74.66666666h631.04c41.17333333 0 74.66666667-33.49333333 74.66666667-74.66666666v-438.82666667c0-41.17333333-33.49333333-74.66666667-74.66666667-74.66666667zM748.8 615.46666667h-190.08c-41.17333333 0-74.66666667 33.49333333-74.66666667 74.66666666v11.09333334c0 11.73333333 9.6 21.33333333 21.33333334 21.33333333s21.33333333-9.6 21.33333333-21.33333333v-11.09333334c0-17.70666667 14.29333333-32 32-32H748.8c11.73333333 0 21.33333333-9.6 21.33333333-21.33333333s-9.6-21.33333333-21.33333333-21.33333333zM171.52-40.10666666999998h-16.85333333c-11.73333333 0-21.33333333 9.6-21.33333334 21.33333334s9.6 21.33333333 21.33333334 21.33333333h16.85333333c17.70666667 0 32 14.29333333 32 32v179.84c0 11.73333333 9.6 21.33333333 21.33333333 21.33333333s21.33333333-9.6 21.33333334-21.33333333v-179.84c-0.21333333-41.17333333-33.49333333-74.66666667-74.66666667-74.66666667zM838.4 505.17333333c-11.73333333 0-21.33333333 9.6-21.33333333 21.33333334v56.74666666c0 17.70666667-14.29333333 32-32 32h-96.42666667c-11.73333333 0-21.33333333 9.6-21.33333333 21.33333334s9.6 21.33333333 21.33333333 21.33333333H785.06666667c41.17333333 0 74.66666667-33.49333333 74.66666666-74.66666667v-56.74666666c0-11.73333333-9.6-21.33333333-21.33333333-21.33333334zM603.94666667 114.55999999999995c-11.73333333 0-21.33333333 9.6-21.33333334 21.33333333V362.24c0 11.73333333 9.6 21.33333333 21.33333334 21.33333333s21.33333333-9.6 21.33333333-21.33333333v-226.34666667c0-11.73333333-9.6-21.33333333-21.33333333-21.33333333zM695.25333333 249.60000000000002c-5.54666667 0-10.88 2.13333333-15.14666666 6.18666667L588.8 347.09333332999995c-8.32 8.32-8.32 21.76 0 30.08 8.32 8.32 21.76 8.32 30.08 0L710.4 285.86666667c8.32-8.32 8.32-21.76 0-30.08-4.26666667-4.26666667-9.6-6.18666667-15.14666667-6.18666667zM512.42666667 249.60000000000002c-5.54666667 0-10.88 2.13333333-15.14666667 6.18666667-8.32 8.32-8.32 21.76 0 30.08l91.52 91.52c8.32 8.32 21.76 8.32 30.08 0 8.32-8.32 8.32-21.76 0-30.08l-91.52-91.52c-4.05333333-4.26666667-9.38666667-6.18666667-14.93333333-6.18666667z"  horiz-adv-x="1024" />

    
    <glyph glyph-name="fengexian" unicode="&#58990;" d="M879.49918815 123.44221391999997l-106.94140207-106.9426157h-60.37564683l167.31826253 167.31826253v-60.37564683z m0-78.59222755v-28.35038815h-28.34917452l28.35038815 28.35038815z m0 217.56010193L633.59112533 16.499598220000053H573.21547852l262.49959348 262.50080711h43.78532978v-16.59031703z m-122.3763437 16.59031703L494.6208237 16.499598220000053h-60.37443318l262.49959348 262.50080711h60.37564682z m-139.02127408 0L355.60319052 16.499598220000053h-60.37443319l262.49959349 262.50080711h60.37564681z m-138.96666074 0L216.63531615 16.499598220000053h-60.37564682l262.50080712 262.50080711h60.37443318z m-138.96787438 0L144.50081185 83.33296829999995v59.79674548l135.87069156 135.87069155h59.85014518z m-138.39018666 0l-57.27725037-57.278464v57.278464h57.278464z m677.72355319 395.69180445L746.30697718 541.49999882h-60.37443318l193.56785778 193.56785777v-60.37564681z m0-78.59222756v-54.5999834h-54.60119703l54.60119703 54.5999834z m-62.160896 155.40041956L607.34031645 541.49999882H546.96466963l210.00040296 210.00040296h60.37443319z m-138.96666075 0L468.37244208 541.49999882h-60.37443319l209.99918933 210.00040296h60.37564681z m-139.07224651 0L329.30019555 541.49999882h-60.3756468l210.00040295 210.00040296h60.37564682z m-138.9156883 0L190.38450725 541.49999882H144.50081185v14.43733807l195.5630649 195.56306489h60.37443317z m-138.96787437 0l-116.91743763-116.91743763v59.79674548l57.12069215 57.12069215h59.85014518zM39.50000355 436.50040415h944.9999929V384H39.50000355v52.50040415z"  horiz-adv-x="1024" />

    
    <glyph glyph-name="tupianyulan" unicode="&#59005;" d="M244.85839186 870.4039416h92.28987724c14.45049922 0 24.6618171-7.32121805 31.02058909-19.45880889 6.16545428-11.56039936 5.78019969-23.50743418-0.96244605-34.68257894-7.12928117-11.94427312-17.91917136-17.91779053-32.1777337-17.91779052-47.01210666 0.19331772-94.21615019 0.19331772-141.2296377 0-20.03738117 0-39.1123163-4.04586362-56.45291537-14.25856234-35.83696189-21.38646267-54.7185793-53.17618009-55.2971516-94.7947225-0.57857231-37.57267879-0.19331772-75.1425959-0.19331772-112.71389387 0-7.89979035-0.96244605-15.4143261-5.39494508-22.54360727-8.28504494-13.67999005-24.85513482-20.42263577-40.65333468-16.18345444-15.4143261 4.23918133-26.39615317 18.30304512-26.39615318 34.29456266 0 49.32501504-0.57857231 98.84196695 0.19331772 148.16698202 0.57719146 50.09552421 21.96365413 90.17028659 61.65454274 120.42036648 22.35028956 16.9567253 47.78261584 26.39615317 75.52785051 29.28763385 2.11959067 0.38387374 4.62443591 0.38387374 7.12928116 0.38387376h90.94217662z m534.476534 0h-92.29125808c-14.45049922 0-24.6618171-7.32121805-31.02058909-19.45880889-6.16545428-11.56039936-5.78019969-23.50743418 0.96382689-34.68257894 7.12928117-11.94427312 17.91917136-17.91779053 32.17635285-17.91779052 47.01210666 0.19331772 94.21753104 0.19331772 141.22963771 0 20.03876202 0 39.1123163-4.04586362 56.45291537-14.25856234 35.83834272-21.38646267 54.71996014-53.17618009 55.29853244-94.7947225 0.57719146-37.57267879 0.19331772-75.1425959 0.19331771-112.71389387 0-7.89979035 0.96244605-15.4143261 5.39356426-22.54360727 8.28504494-13.67999005 24.85513482-20.42263577 40.65471551-16.18345444 15.41294526 4.23918133 26.39615317 18.30304512 26.39615317 34.29456266 0 49.32501504 0.57719146 98.84196695-0.19331771 148.16698202-0.57719146 50.09552421-21.96503498 90.17028659-61.65454276 120.42036648-22.35028956 16.9567253-47.78399668 26.39615317-75.52923132 29.28763385-2.50484526 0.19193687-5.00969051 0.38387374-7.32121805 0.38387376h-90.7488589zM244.85839186-102.59725932000003h92.28987724c14.45049922 0 24.6618171 7.32121805 31.02058909 19.46018972 6.16545428 11.56039936 5.78019969 23.50605332-0.96244605 34.68119811-7.12928117 11.94565395-17.91917136 17.91917136-32.1777337 17.91917137-47.01210666-0.19331772-94.21615019-0.19331772-141.2296377 0-20.03738117 0-39.1123163 4.04586362-56.45291537 14.2571815-35.83696189 21.38646267-54.7185793 53.17756094-55.2971516 94.7947225-0.57857231 37.57267879-0.19331772 75.14397676-0.19331772 112.7152747 0 7.8984095-0.96244605 15.41294526-5.39494508 22.54222643-8.28504494 13.67999005-24.85513482 20.42263577-40.65333468 16.18345446-15.4143261-4.23780048-26.39615317-18.30304512-26.39615318-34.29456268 0-49.3236342-0.57857231-98.84058611 0.19331772-148.16560116 0.57719146-50.09552421 21.96365413-90.17166743 61.65454274-120.42174734 22.35028956-16.95534446 47.78261584-26.39615317 75.52785051-29.28625302 2.50484526-0.19331772 5.00969051-0.38525459 7.32121805-0.38525459h90.74885888z m534.476534 0h-92.29125808c-14.45049922 0-24.6618171 7.32121805-31.02058909 19.46018972-6.16545428 11.56039936-5.78019969 23.50605332 0.96382689 34.68119811 7.12928117 11.94565395 17.91917136 17.91917136 32.17635285 17.91917137 47.01210666-0.19331772 94.21753104-0.19331772 141.22963771 0 20.03876202 0 39.1123163 4.04586362 56.45291537 14.2571815 35.83834272 21.38646267 54.71996014 53.17756094 55.29853244 94.7947225 0.57719146 37.57267879 0.19331772 75.14397676 0.19331771 112.7152747 0 7.8984095 0.96244605 15.41294526 5.39356426 22.54222643 8.28504494 13.67999005 24.85513482 20.42263577 40.65471551 16.18345446 15.41294526-4.23780048 26.39615317-18.30304512 26.39615317-34.29456268 0-49.3236342 0.57719146-98.84058611-0.19331771-148.16560116-0.57719146-50.09552421-21.96503498-90.17166743-61.65454276-120.42174734-22.35028956-16.95534446-47.78399668-26.39615317-75.52923132-29.28625302-2.50484526-0.19331772-5.00969051-0.38525459-7.32121805-0.38525459h-90.7488589zM214.60831195 192.38624235999998c5.78019969-14.45049922 17.53391677-22.92886187 31.40584368-22.92886187h528.88965203c9.44080871 0 17.72585364 3.85392674 24.4684994 11.56039937s13.67999005 17.14866218 13.67999002 28.13048924V546.32750463c0 29.28763387-12.13759084 43.93006994-26.01089858 49.71026963-13.8719269 5.97213657-28.514363 1.54101836-38.14987025-11.17514477L564.50371061 339.97465204c-6.74402658-9.05555411-15.60626299-13.67999005-26.01089857-13.67999003s-19.266872 4.62443591-26.01089858 13.67999003l-82.07855938 109.05328485c-6.93734429 9.05555411-15.79958069 13.67860919-26.20421629 13.67860917s-19.266872-4.81637279-26.2042163-13.87192689L219.80993932 234.77391308999995c-9.247491-12.13759084-10.98182707-27.93717153-5.20162737-42.38767073z"  horiz-adv-x="1024" />

    
    <glyph glyph-name="time" unicode="&#58880;" d="M512 864C247.32000031 864 32 648.6799996899999 32 384s215.32000031-480 480-480 480 215.32000031 480 480S776.67999969 864 512 864z m0-880.00000031C291.44-16.00000031000002 111.99999969 163.44000000000005 111.99999969 384S291.44 784.00000031 512 784.00000031s400.00000031-179.44000031 400.00000031-400.00000031-179.44000031-400.00000031-400.00000031-400.00000031zM697.92000031 266.35999969L531.99999969 362.32000030999995V624a40.00000031 40.00000031 0 0 1-79.99999969 0v-280.00000031c0-14.83999969 18.43999969-27.28000031 30.43999969-34.15999969 3.31999969-4.99999969 12.43999969-9.52000031 18-12.72l165-100.00000031c19.12000031-11.04 39.84-4.48000031 50.88 14.64s0.76000031 43.56-18.39999938 54.6z"  horiz-adv-x="1024" />

    
    <glyph glyph-name="icon-test" unicode="&#58885;" d="M538.241705 33.47251200000005l-199.14943101-102.265924c-102.265924-53.824171-166.854929-5.382417-150.70767699 107.648341l37.676919 220.679099-161.472511 156.09009399c-80.736256 80.736256-53.824171 156.090095 59.206587 172.23734601l220.679099 32.29450199 96.88350699 199.14943101c48.44175299 102.265924 134.56042601 102.265924 183.00218 0l96.88350701-199.14943101 220.679099-32.29450199c113.03075799-16.147251 139.942843-96.883507 59.206588-172.23734601l-161.472512-156.09009399 37.67692-220.679099c21.529668-113.03075799-48.44175299-161.472512-150.70767801-107.648341l-188.38459699 102.265924zM538.241705 33.47251200000005l-199.14943101-102.265924c-102.265924-53.824171-166.854929-5.382417-150.70767699 107.648341l37.676919 220.679099-161.472511 156.09009399c-80.736256 80.736256-53.824171 156.090095 59.206587 172.23734601l220.679099 32.29450199 96.88350699 199.14943101c48.44175299 102.265924 134.56042601 102.265924 183.00218 0l96.88350701-199.14943101 220.679099-32.29450199c113.03075799-16.147251 139.942843-96.883507 59.206588-172.23734601l-161.472512-156.09009399 37.67692-220.679099c21.529668-113.03075799-48.44175299-161.472512-150.70767801-107.648341l-188.38459699 102.265924z"  horiz-adv-x="1076" />

    
    <glyph glyph-name="tupian" unicode="&#58974;" d="M900.31129741 802.8292824499999H123.68605267c-48.82480157 0-90.02192732-39.6710619-90.02192733-90.02192732v-657.61471026c0-48.82480157 39.6710619-90.02192732 90.02192733-90.02192732h776.62524474c48.82480157 0 90.02192732 39.6710619 90.02192733 90.02192732V712.80735513c0 50.35086542-39.6710619 90.02192732-90.02192733 90.02192732zM94.6961199 712.80735513c0 16.78406412 13.73193381 30.51599792 30.51599792 30.51599662h776.62524473c16.78406412 0 30.51732224-13.73193381 30.51732224-30.51599662v-352.45738614c-48.82612588 39.6710619-131.21772876 93.07405632-231.9194609 93.07405761-93.07405632 0-183.09465934-71.71179936-271.5905215-140.37279274-67.13492953-53.40299571-137.32066374-108.33073097-186.14546531-108.33073097-68.66099468 0-128.16692407 50.35086542-148.00179158 70.18573421V712.80735513h-0.0013256z m836.13117544-656.0886451c0-16.78406412-13.73193381-30.51599792-30.51599793-30.51599793H123.68605267c-16.78406412 0-30.51599792 13.73193381-30.51599663 30.51599793V198.61756790000004c35.09286775-25.93780247 86.96979833-51.87693057 148.00046727-51.87693056 70.18705853 0 144.94966257 57.97986556 222.76572123 120.53792525 79.34079819 62.55673538 163.25979183 128.16559977 234.97026558 128.16559846 128.16692407 0 230.39472006-112.9076008 231.9194609-114.43499027v-224.29046075h0.00132432zM332.71851578 384.76303193c65.60886438 0 119.0118601 53.40299571 119.01186009 119.01186009s-53.40299571 119.01053578-119.01186009 119.01053579c-65.60754006 0-119.01053578-53.40167011-119.01053579-119.01053579s53.40299571-119.0118601 119.01053579-119.01186009z m0 180.04253032c33.56812692 0 59.5059294-27.46519194 59.50592939-59.5059294 0-33.56680261-27.46386763-59.5059294-59.50592939-59.50593068-33.56680261 0-59.50460508 27.46519194-59.50460509 59.50593068 0 32.04206177 27.46386763 59.5059294 59.50460509 59.5059294z"  horiz-adv-x="1024" />

    
    <glyph glyph-name="ad-icon-tooltip" unicode="&#58942;" d="M513.805996-54.556143c-240.197531 0-435.24515 194.74662-435.245149 435.245149S273.307466 815.934156 513.805996 815.934156s435.24515-194.74662 435.24515-435.24515-195.047619-435.24515-435.24515-435.245149z m0 812.096413c-208.291593 0-377.152263-168.86067-377.152263-377.152263s168.86067-377.152263 377.152263-377.152263S890.95826 172.096414 890.95826 380.388007 722.09759 757.54027 513.805996 757.54027zM579.423868 366.542034c-36.119929-21.069959-53.577895-48.460905-52.072898-81.570841v-20.46796h-51.470899s-1.805996 41.537919 6.019988 68.326867c6.621987 21.972957 26.186949 44.848912 52.072898 63.209876 45.450911 30.099941 66.52087 61.102881 63.510876 93.008819-4.514991 45.450911-31.002939 69.530864-79.162845 72.540858-55.985891 1.504997-91.503821-29.497942-106.553792-93.008818l-54.781893 26.186949 9.029982 23.477954c24.982951 64.413874 78.861846 95.717813 161.335685 93.008818 81.570841-4.514991 126.118754-43.945914 133.643739-117.69077 4.514991-46.955908-22.574956-89.396825-81.570841-127.021752zM527.952969 149.521458h-52.072898v58.092887h52.072898V149.521458z"  horiz-adv-x="1024" />

    
    <glyph glyph-name="check-box" unicode="&#58894;" d="M740 606L422 288 284 444c-24 24-60 24-84 0-24-24-24-60 0-84l174-198c12-12 30-18 42-18 18 0 30 6 42 18l360 360c24 24 24 60 0 84-18 24-60 24-78 0zM872 864H152C86 864 32 810 32 744v-720c0-66 54-120 120-120h720c66 0 120 54 120 120V744c0 66-54 120-120 120z m60-840c0-36-24-60-60-60H152c-36 0-60 24-60 60V744c0 36 24 60 60 60h720c36 0 60-24 60-60v-720z"  horiz-adv-x="1024" />

    
    <glyph glyph-name="switch" unicode="&#58976;" d="M752.2816 634.38506667H271.7184C133.4336 634.38506667 21.33333333 522.28266667 21.33333333 384c0-138.28693333 112.10026667-250.38506667 250.38506667-250.38506667h480.5632C890.5664 133.61493332999999 1002.66666667 245.71306667 1002.66666667 384c0 138.28266667-112.10026667 250.38506667-250.38506667 250.38506667z m0-475.17013334H271.7184C147.77173333 159.21493333 46.93333333 260.05333333 46.93333333 384s100.8384 224.78506667 224.78506667 224.78506667h480.5632C876.22826667 608.78506667 977.06666667 507.94666667 977.06666667 384s-100.8384-224.78506667-224.78506667-224.78506667zM741.67466667 384m-167.03573334 0a167.03573333 167.03573333 0 1 1 334.07146667 0 167.03573333 167.03573333 0 1 1-334.07146667 0Z"  horiz-adv-x="1024" />

    
    <glyph glyph-name="pingfen" unicode="&#58944;" d="M765.3632-39.8592c-4.1728 0-8.3712 1.024-12.1856 3.072l-253.1072 136.9344-262.4-135.0144a25.4976 25.4976 0 0 0-27.4432 2.6112 25.5232 25.5232 0 0 0-9.1904 25.984l64.128 275.1232-206.976 192.5888c-7.3216 6.8096-10.0096 17.2288-6.8864 26.7008s11.4688 16.3072 21.376 17.4592l293.2736 34.0224 133.4784 254.5408c4.5312 8.6528 13.3888 14.4128 23.3728 13.696a25.6 25.6 0 0 0 22.6048-14.9504l116.0704-254.5408 290.0736-36.224a25.6 25.6 0 0 0 13.6192-44.7232l-220.4416-191.5648 45.0816-270.9248a25.6 25.6 0 0 0-23.936-34.7392l-0.512-0.0512z m-264.96 194.56c4.1984 0 8.3968-1.024 12.1856-3.072l218.9312-118.4512-39.6544 238.3872a25.6 25.6 0 0 0 8.448 23.5264l187.9808 163.328-247.3472 30.8992a25.5488 25.5488 0 0 0-20.1216 14.7712l-100.3264 220.0064-115.5072-220.2368a25.6 25.6 0 0 0-19.7376-13.5424l-251.6224-29.184 177.2544-164.9152c6.7072-6.2464 9.5744-15.616 7.5008-24.5504l-54.9376-235.6736 225.2032 115.8912a26.112 26.112 0 0 0 11.7504 2.816z"  horiz-adv-x="1024" />

    
    <glyph glyph-name="input" unicode="&#59058;" d="M857 684H167c-74.25 0-135-60.75-135-135v-330c0-74.25 60.75-135 135-135h690c74.25 0 135 60.75 135 135V549c0 74.25-60.75 135-135 135z m82.50000001-465c0-21.9375-8.625-42.5625-24.18750001-58.3125-15.75-15.75-36.375-24.1875-58.3125-24.18750001H167c-21.9375 0-42.5625 8.625-58.3125 24.18750001C93.125 176.4375 84.49999999 197.0625 84.49999999 219V549c0 21.9375 8.625 42.5625 24.18750001 58.3125C124.4375 622.875 145.0625 631.50000001 167 631.50000001h690c21.9375 0 42.5625-8.625 58.3125-24.18750001 15.75-15.75 24.1875-36.375 24.18750001-58.3125v-330zM321.6875 255.5625m-27.18749999 0a27.1875 27.1875 0 1 1 54.37499999 0 27.1875 27.1875 0 1 1-54.37499999 0ZM428.5625 255.5625m-27.1875 0a27.1875 27.1875 0 1 1 54.375 0 27.1875 27.1875 0 1 1-54.375 0ZM535.4375 255.5625m-27.1875 0a27.1875 27.1875 0 1 1 54.375 0 27.1875 27.1875 0 1 1-54.375 0ZM176.375 539.625h52.5v-311.25H176.375z"  horiz-adv-x="1024" />

    
    <glyph glyph-name="radio-active" unicode="&#58901;" d="M512.03626531 864a479.99298094 479.99298094 0 1 1 479.96373656-479.99298094A479.96373655 479.96373655 0 0 1 512.03626531 864z m0-867.63125344a387.66751687 387.66751687 0 1 0 387.6382725 387.6382725 387.66751687 387.66751687 0 0 0-387.6382725-387.6382725zM512.03626531 384.00701906m-187.54615218 0a187.5461522 187.5461522 0 1 1 375.09230437 0 187.5461522 187.5461522 0 1 1-375.09230438 0Z"  horiz-adv-x="1024" />

    
    <glyph glyph-name="color" unicode="&#58927;" d="M272.25960294 585.11056595c0 41.42522469 33.14017975 74.56540445 70.42288198 74.56540444s70.42288197-33.14017975 70.42288197-74.56540444S384.10770961 514.6876839700001 342.68248492 514.6876839700001s-70.42288197 33.14017975-70.42288198 70.42288198zM131.41383899 440.12227953C131.41383899 481.54750422 164.55401872 514.6876839700001 201.83672095 514.6876839700001s70.42288197-33.14017975 70.42288199-74.56540444-33.14017975-70.42288197-70.42288199-70.42288197-70.42288197 33.14017975-70.42288196 70.42288197zM462.81563651 634.82083557c0 41.42522469 33.14017975 74.56540445 70.42288199 74.56540445 37.28270222 0 70.42288197-33.14017975 70.42288196-74.56540443s-33.14017975-70.42288197-70.42288196-70.42288198c-37.28270222 0-70.42288197 33.14017975-70.42288199 70.42288196zM462.81563651 224.71111113999996c0 53.8527921 41.42522469 95.2780168 95.27801679 95.27801681s95.2780168-41.42522469 95.27801679-95.27801681-41.42522469-95.2780168-95.27801679-95.2780168-95.2780168 41.42522469-95.27801679 95.2780168zM508.38338368 754.95398719C272.25960294 754.95398719 81.70356935 593.39561089 81.70356935 390.41200989s190.55603358-360.39945482 426.67981433-360.39945481c66.2803595 0 115.99062914 8.28504494 157.41585383 24.85513481 28.99765728 12.42756741 53.8527921 28.99765728 66.2803595 49.71026964 28.99765728 45.56774717 8.28504494 111.84810667-12.4275674 153.27333136-45.56774717 95.2780168-4.14252247 136.70324148 16.57008987 149.13080889 12.42756741 8.28504494 24.85513482 12.42756741 37.28270222 12.42756741 20.71261235 0 53.8527921-8.28504494 86.99297186-57.99531457 16.57008987-28.99765728 37.28270222-37.28270222 45.56774715-37.28270223 16.57008987 0 28.99765728 28.99765728 28.99765728 74.56540445 0 194.69855605-190.55603358 356.25693235-426.67981431 356.25693235z m0-770.50917926c-124.27567408 0-244.40882569 41.42522469-331.40179754 120.1331516-45.56774717 37.28270222-78.70792691 82.85044939-103.56306173 132.56071902-24.85513482 45.56774717-37.28270222 99.42053925-37.28270221 157.41585382S48.56338961 502.26011655 73.41852441 556.11290866c24.85513482 49.71026963 57.99531457 91.13549431 103.56306172 132.56071901C263.97455799 763.23903212 384.10770961 804.66425682 508.38338368 804.66425682s244.40882569-41.42522469 331.40179754-120.1331516c45.56774717-37.28270222 78.70792691-82.85044939 103.56306172-132.56071902 24.85513482-49.71026963 37.28270222-103.56306173 37.28270221-161.55837629 0-91.13549431-37.28270222-120.13315161-74.56540444-120.13315161-28.99765728 0-62.13783703 20.71261235-86.99297185 57.99531456-16.57008987 24.85513482-33.14017975 37.28270222-45.56774716 37.28270222-4.14252247 0-8.28504494 0-12.42756742-4.14252246-24.85513482-16.57008987-12.42756741-62.13783703 0-82.85044938 37.28270222-78.70792691 41.42522469-149.13080889 8.28504496-202.98360098-37.28270222-62.13783703-124.27567408-91.13549431-260.97891556-91.13549431z"  horiz-adv-x="1024" />

    
    <glyph glyph-name="slider" unicode="&#58893;" d="M954.73208889 826.73208889h-862.16248889c-23.30168889 0-38.83614777-15.53445888-38.83614777-38.83614777v-7.76723001c0-23.30168889 15.53445888-38.83614777 38.83614777-38.83614777h862.16248889c7.76723001 0 15.53445888 0 23.30168889 7.76722887s7.76723001 15.53445888 7.76723001 23.30168889v7.76723001c0 31.0689189-15.53445888 46.60337778-31.0689189 46.60337778zM799.38749667 865.56823666h-77.67229667c-23.30168889 0-38.83614777-15.53445888-38.83614777-38.83614777v-77.67229668c0-23.30168889 15.53445888-38.83614777 38.83614777-38.83614776h77.67229667c23.30168889 0 38.83614777 15.53445888 38.83614778 38.83614776v77.67229668c0 23.30168889-15.53445888 38.83614777-38.83614778 38.83614777zM954.73208889 477.20675555h-862.16248889c-23.30168889 0-38.83614777-15.53445888-38.83614777-38.83614776v-7.76723001c0-23.30168889 15.53445888-38.83614777 38.83614777-38.83614777h862.16248889c23.30168889 0 38.83614777 15.53445888 38.83614777 38.83614777v7.76723001c-7.76723001 23.30168889-23.30168889 38.83614777-38.83614777 38.83614776zM558.60337778 516.04290333h-77.67229668c-23.30168889 0-38.83614777-15.53445888-38.83614777-38.83614778v-77.67229667c0-23.30168889 15.53445888-38.83614777 38.83614777-38.83614777h77.67229668c23.30168889 0 38.83614777 15.53445888 38.83614777 38.83614777v77.67229667c0 23.30168889-15.53445888 38.83614777-38.83614777 38.83614778zM954.73208889 127.68142221999994h-862.16248889c-7.76723001 0-15.53445888 0-23.30168889-7.76723001-7.76723001-7.76723001-7.76723001-15.53445888-7.76723001-23.30168888v-7.76722888c0-23.30168889 15.53445888-38.83614777 38.83614891-38.8361489h862.16248889c23.30168889 0 38.83614777 15.53445888 38.83614777 38.8361489v7.76722888c-15.53445888 15.53445888-31.0689189 31.0689189-46.60337778 31.06891889zM333.3537189 166.51756998999997h-77.67229668c-23.30168889 0-38.83614777-15.53445888-38.83614777-38.83614777v-77.67229667c0-23.30168889 15.53445888-38.83614777 38.83614777-38.83614777h77.67229668c23.30168889 0 38.83614777 15.53445888 38.83614777 38.83614777v77.67229667c0 23.30168889-15.53445888 38.83614777-38.83614777 38.83614777z"  horiz-adv-x="1024" />

    
    <glyph glyph-name="icon_bars" unicode="&#59332;" d="M40.67299953 413.45793709l942.65400094 0 0-58.91587418-942.65400094 0 0 58.91587418ZM40.67299953 118.87856196999996l942.65400094 0 0-58.91587557-942.65400094 0 0 58.91587557ZM40.67299953 708.0373136000001l942.65400094 0 0-58.91587557-942.65400094 0 0 58.91587557Z"  horiz-adv-x="1024" />

    
    <glyph glyph-name="fuwenbenkuang" unicode="&#59010;" d="M198.73792 601.890816h93.74378667v-218.73186133h-31.24974934v-31.244288H386.22549333v31.244288h-31.24974933V601.890816h93.73832533v-31.244288h31.24974934V664.3848533299999H167.48817067v-93.73832533h31.24974933zM542.46331733 539.39677867h312.475648v-62.49403734h-312.475648zM542.46331733 414.408704h312.475648v-62.49403733h-312.475648zM167.48817067 289.415168h687.45079466v-62.49403733H167.493632v62.49403733zM167.48817067 164.42709333000005h687.45079466v-62.49403733H167.493632v62.49403733zM542.46331733 664.3848533299999h312.475648v-62.49403733h-312.475648zM30.982144 862.60394667v-958.889984h960.462848V862.60394667H30.982144zM927.06133333-31.94606933H96.93866667V796.696576h830.12266666v-828.64264533z"  horiz-adv-x="1024" />

    
    <glyph glyph-name="date" unicode="&#59039;" d="M205 344h120c13.30000001 0 24 10.70000001 24 24s-10.70000001 24-24 24H205c-13.30000001 0-24-10.70000001-24-24s10.70000001-24 24-24zM453 344h120c13.30000001 0 24 10.70000001 24 24s-10.70000001 24-24 24H453c-13.30000001 0-24-10.70000001-24-24s10.70000001-24 24-24zM701 344h120c13.30000001 0 24 10.70000001 24 24s-10.70000001 24-24 24H701c-13.30000001 0-24-10.70000001-24-24s10.70000001-24 24-24zM205 209h120c13.30000001 0 24 10.70000001 24 24s-10.70000001 24-24 24H205c-13.30000001 0-24-10.70000001-24-24s10.70000001-24 24-24zM453 209h120c13.30000001 0 24 10.70000001 24 24s-10.70000001 24-24 24H453c-13.30000001 0-24-10.70000001-24-24s10.70000001-24 24-24zM701 209h120c13.30000001 0 24 10.70000001 24 24s-10.70000001 24-24 24H701c-13.30000001 0-24-10.70000001-24-24s10.70000001-24 24-24zM205 73h120c13.30000001 0 24 10.70000001 24 24s-10.70000001 24-24 24H205c-13.30000001 0-24-10.70000001-24-24s10.70000001-24 24-24zM453 73h120c13.30000001 0 24 10.70000001 24 24s-10.70000001 24-24 24H453c-13.30000001 0-24-10.70000001-24-24s10.70000001-24 24-24zM701 73h120c13.30000001 0 24 10.70000001 24 24s-10.70000001 24-24 24H701c-13.30000001 0-24-10.70000001-24-24s10.70000001-24 24-24zM870 780H745V832c0 13.30000001-10.70000001 24-24 24s-24-10.70000001-24-24v-52H327V832c0 13.30000001-10.70000001 24-24 24s-24-10.70000001-24-24v-52H154c-51.90000001 0-94-42.10000001-94-94v-692c0-51.90000001 42.10000001-94 94-94h716c51.90000001 0 94 42.10000001 94 94V686c0 51.90000001-42.10000001 94-94 94z m46-786c0-25.4-20.6-46-46-46H154c-25.4 0-46 20.6-46 46V509h808v-515z m0 563H108V686c0 25.4 20.6 46 46 46h125v-68c0-13.30000001 10.70000001-24 24-24s24 10.70000001 24 24v68h370v-68c0-13.30000001 10.70000001-24 24-24s24 10.70000001 24 24v68h125c25.4 0 46-20.6 46-46v-129z"  horiz-adv-x="1024" />

    
    <glyph glyph-name="ic" unicode="&#58913;" d="M872-95.94000000999995H152a120 120 0 0 0-120 120.00000002v720a120 120 0 0 0 120 120h720a120 120 0 0 0 120-120v-720a120 120 0 0 0-120-120zM812 84H212v-60h600v60zM464.29999999 264L332 396.36 559.70000001 624 692 491.70000001 464.29999999 264zM212 144.05999999000005L262.88 324 392 194.88l-180-50.82000001zM572 631.44l87.72 87.72c24.18000001 24.24 62.88 24.90000001 86.34000001 1.38000001l42.47999998-42.48c23.46000001-23.46000001 22.86000001-62.10000001-1.37999999-86.34000001L699.44 504"  horiz-adv-x="1024" />

    
    <glyph glyph-name="trash" unicode="&#58895;" d="M828.6464 613.89531401h-1.404343c-19.518171 0-35.338971-15.8208-35.33897099-35.33531401v-493.897143a35.254857 35.254857 0 0 1 1.69691399-10.821486l0.117029-51.671771c0-30.679771-13.31931401-47.09668599-45.696-47.09668601l-469.6832 1.2032c-32.35108601 0-46.588343 14.01051401-46.58834299 44.68662901V563.624229h-0.27428601V578.56c0 19.51451399-15.8208 35.33531399-35.33531399 35.33531399h-1.40434301c-19.51451399 0-35.33531399-15.8208-35.335314-35.33531399v-14.939429h-0.424229V20.73599999999999c0-61.520457 52.618971-111.5392 117.295543-111.5392h468.970057c64.67291401 0 117.31748601 50.0224 117.31748601 111.5392v53.994057a35.364571 35.364571 0 0 1 1.42628499 9.929143V578.56c-0.003657 19.51451399-15.824457 35.33531399-35.338971 35.33531399z m0 0M388.476343 83.78148598999996V454.11108601c0 19.024457-15.422171 34.453943-34.450286 34.45394299-19.024457 0-34.446629-15.422171-34.446628-34.45394299V83.78514299999995a34.45028599 34.45028599 0 0 1 68.896914-0.00365701z m154.59474299 2e-8V454.11108601c0 19.024457-15.422171 34.453943-34.45028599 34.45394299-19.024457 0-34.446629-15.422171-34.446629-34.45394299V83.78514299999995a34.45028599 34.45028599 0 0 1 68.89691499-0.00365701z m154.5984 0V454.11108601c0 19.024457-15.422171 34.453943-34.45028599 34.45394299-19.024457 0-34.446629-15.422171-34.446629-34.45394299V83.78514299999995a34.45028599 34.45028599 0 0 1 68.89691499-0.00365701z m224.35108501 637.98125699h-198.048914V789.504c1.19588599 56.279771-47.535543 69.847771-96.17554301 69.847771h-234.04251399c-60.405029 0-94.858971-21.617371-94.858971-67.90948501l-0.248686-69.67954299h-198.144c-19.51451399 0-35.33531399-15.8208-35.335314-35.335314v-1.76274301c0-19.51451399 15.8208-35.33531399 35.335314-35.33531499h821.51497099c19.521829 0 35.342629 15.8208 35.34262901 35.33531499v1.76274301c0 19.51451399-15.8208 35.33531399-35.34262901 35.335314h0.00365701zM364.181943 768.4864c0 15.484343 11.483429 28.990171 27.794286 28.990171l234.532571-1.20685699c16.2816 0 30.632229-11.12868601 30.632229-26.61668501l0.190171-47.890286H364.181943V768.4864z m0 0"  horiz-adv-x="1024" />

    
    <glyph glyph-name="grid-" unicode="&#59053;" d="M422 819H92a15 15 0 0 1-15-15v-330a15 15 0 0 1 15-15h330a15 15 0 0 1 15 15V804a15 15 0 0 1-15 15zM932 819H602a15 15 0 0 1-15-15v-330a15 15 0 0 1 15-15h330a15 15 0 0 1 15 15V804a15 15 0 0 1-15 15zM422 309H92a15 15 0 0 1-15-15v-330a15 15 0 0 1 15-15h330a15 15 0 0 1 15 15V294a15 15 0 0 1-15 15zM932 309H602a15 15 0 0 1-15-15v-330a15 15 0 0 1 15-15h330a15 15 0 0 1 15 15V294a15 15 0 0 1-15 15z"  horiz-adv-x="1024" />

    
    <glyph glyph-name="drag" unicode="&#59458;" d="M994.17505185 390.91768889L839.31591111 513.13019259c-5.70405925 4.49042963-14.19946667 0.48545185-14.19946666-6.91768889V427.69066667H555.69066667V697.11644445h78.6432c7.28177778 0 11.40811852 8.49540741 6.91768888 14.19946666L518.91768889 866.17505185c-3.51952592 4.49042963-10.31585185 4.49042963-13.71401481 0L382.86980741 711.31591111c-4.49042963-5.70405925-0.48545185-14.19946667 6.91768889-14.19946666H468.30933333v-269.42577778H198.88355555v78.6432c0 7.28177778-8.49540741 11.40811852-14.19946666 6.91768888L29.82494815 390.91768889c-4.49042963-3.51952592-4.49042963-10.31585185 0-13.71401481l154.73777777-122.33386667c5.70405925-4.49042963 14.19946667-0.48545185 14.19946667 6.91768889V340.30933332999996h269.42577778v-269.42577778h-78.6432c-7.28177778 0-11.40811852-8.49540741-6.91768889-14.19946666l122.33386667-154.73777778c3.51952592-4.49042963 10.31585185-4.49042963 13.71401482 0l122.33386666 154.73777778c4.49042963 5.70405925 0.48545185 14.19946667-6.91768888 14.19946666H555.69066667V340.30933332999996h269.42577778v-78.6432c0-7.28177778 8.49540741-11.40811852 14.19946666-6.91768888l154.73777778 122.33386666c4.49042963 3.51952592 4.49042963 10.31585185 0.12136296 13.83537778z"  horiz-adv-x="1024" />

    
    <glyph glyph-name="shangchuan" unicode="&#58949;" d="M909.94133333 461.94133333a259.85066667 259.85066667 0 0 1-140.32 72.98133334 261.41866667 261.41866667 0 0 1-515.2 0 259.85066667 259.85066667 0 0 1-140.32-72.98133334C64.576 412.45866667 37.33333333 346.90133333000006 37.33333333 277.33333332999996s27.24266667-135.12533333 76.72533334-184.608S229.09866667 16 298.66666667 16h218.35733333a48 48 0 0 1 48 48V246.784L603.73333333 208a48 48 0 0 1 67.88266667 67.88266667L550.95466667 396.608l-0.096 0.096c-0.53333333 0.52266667-1.06666667 1.06666667-1.61066667 1.536l-0.896 0.77866667-0.88533333 0.75733333c-0.37333333 0.30933333-0.75733333 0.59733333-1.14133334 0.896l-0.69333333 0.53333333c-0.416 0.30933333-0.84266667 0.608-1.26933333 0.90666667l-0.62933334 0.43733333c-0.448 0.29866667-0.88533333 0.576-1.33333333 0.85333334-0.21333333 0.13866667-0.42666667 0.27733333-0.65066667 0.40533333-0.43733333 0.26666667-0.87466667 0.512-1.32266666 0.75733333l-0.72533334 0.416c-0.42666667 0.224-0.84266667 0.43733333-1.26933333 0.64l-0.85333333 0.42666667-1.17333334 0.53333333-1.06666666 0.43733334-1.06666667 0.40533333q-0.59733333 0.24533333-1.184 0.448c-0.30933333 0.11733333-0.608 0.21333333-0.91733333 0.30933333l-1.344 0.43733334-0.81066667 0.23466666-1.46133333 0.39466667-0.75733334 0.17066667-1.536 0.34133333-0.75733333 0.128c-0.512 0.096-1.06666667 0.192-1.54666667 0.26666667l-0.864 0.10666666c-0.48 0.064-0.96 0.128-1.44 0.17066667s-0.768 0.064-1.16266666 0.08533333-0.77866667 0.07466667-1.184 0.08533334c-0.72533333 0-1.45066667 0.05333333-2.13333334 0.064h-0.36266666c-0.72533333 0-1.45066667 0-2.13333334-0.064-0.40533333 0-0.8-0.05333333-1.19466666-0.08533334s-0.768 0-1.152-0.08533333-0.96-0.10666667-1.44-0.17066667l-0.864-0.10666666c-0.52266667-0.07466667-1.06666667-0.17066667-1.54666667-0.26666667l-0.75733333-0.128-1.54666667-0.34133333-0.736-0.17066667-1.48266667-0.40533333c-0.26666667-0.07466667-0.53333333-0.13866667-0.8-0.224l-1.35466666-0.43733334-0.896-0.29866666-1.20533334-0.45866667-1.06666666-0.40533333c-0.352-0.13866667-0.69333333-0.29866667-1.06666667-0.448l-1.152-0.52266667-0.87466667-0.42666667-1.248-0.64-0.74666666-0.416c-0.43733333-0.24533333-0.87466667-0.49066667-1.312-0.75733333-0.224-0.128-0.43733333-0.27733333-0.66133334-0.416-0.43733333-0.27733333-0.88533333-0.544-1.312-0.84266667-0.224-0.13866667-0.43733333-0.29866667-0.65066666-0.448-0.416-0.288-0.84266667-0.58666667-1.25866667-0.896l-0.704-0.544-1.13066667-0.88533333-0.90666666-0.77866667c-0.288-0.256-0.58666667-0.50133333-0.864-0.75733333-0.56533333-0.50133333-1.06666667-1.06666667-1.64266667-1.55733333l-0.08533333-0.07466667-0.096-0.10666667c-0.52266667-0.52266667-1.06666667-1.06666667-1.536-1.61066666l-0.768-0.896c-0.256-0.288-0.512-0.576-0.75733334-0.87466667l-0.39466666-0.49066667-117.06666667-117.13066666a48 48 0 0 1 67.88266667-67.88266667L469.024 246.39999999999998v-134.4H298.66666667c-91.168 0-165.33333333 74.16533333-165.33333334 165.33333333s74.16533333 165.33333333 165.33333334 165.33333334h48v48c0 91.168 74.16533333 165.33333333 165.33333333 165.33333333s165.33333333-74.16533333 165.33333333-165.33333333v-48h48c91.168 0 165.33333333-74.16533333 165.33333334-165.33333334s-74.16533333-165.33333333-165.33333334-165.33333333a48 48 0 0 1 0-96c69.568 0 135.136 27.25333333 184.608 76.72533333S986.66666667 207.76533332999998 986.66666667 277.33333332999996s-27.24266667 135.12533333-76.72533334 184.608z"  horiz-adv-x="1024" />

    
    <glyph glyph-name="zhage" unicode="&#58943;" d="M1127.43971643 712.12081484h-188.32952032V55.84151797000004h188.33705393c12.99525705 0 24.06194218 4.59542422 33.29799058 13.73353746 9.19084844 9.19084844 13.80133905 20.20479924 13.80133987 33.14732192V665.23995547c0 12.93498907-4.61049143 23.98660703-13.79380627 33.14732108-9.24358282 9.16824765-20.31026798 13.76367188-33.30552418 13.76367188v-0.03013357z m-282.50558047 0.03013359h-282.50558048v-656.27176329h282.50558048V712.15848203zM468.26002893 55.87918516000002V712.15848203h-188.33705392c-12.99525705 0-24.06194218-4.59542422-33.29799062-13.77120548-9.17578125-9.15318045-13.80133905-20.20479924-13.80133905-33.14732108v-562.50251092c0-12.94252267 4.6255578-23.95647344 13.79380547-33.1473219 9.24358282-9.13811408 20.31026798-13.7335383 33.3055242-13.73353748h188.33705392v0.03013358zM279.91544222 805.875h847.53180782c38.95563593 0 72.26116095-13.7335383 99.85630544-41.20814767C1254.8987008 737.19977655 1268.69250626 704.05245547 1268.69250626 665.23995547v-562.51004452c0-38.78236642-13.79380545-71.95982107-41.38895078-99.41183048-27.59514532-27.45954217-60.90066954-41.19308047-99.85630544-41.19308047H279.91544222c-38.95563593 0-72.27622734 13.7335383-99.85630625 41.19308047C152.46399062 30.77008903000001 138.67018517 63.94754452999996 138.67018517 102.72991094999998V665.23995547C138.67018517 704.05245547 152.46399062 737.19977655 180.05913597 764.66685232 207.63168048 792.1414617 240.95980547 805.875 279.92297501 805.875z"  horiz-adv-x="1371" />

    
    <glyph glyph-name="number" unicode="&#59243;" d="M63.39047573-6.095238399999971h897.21904854c11.7028576 0 19.5047616-7.80190507 19.5047616-19.5047616v-39.00952427c0-11.7028576-7.80190507-19.5047616-19.5047616-19.5047616h-897.21904854c-11.7028576 0-19.5047616 7.80190507-19.5047616 19.5047616v39.00952427c0 11.7028576 7.80190507 19.5047616 19.5047616 19.5047616zM145.31047573 660.9676192L43.88571413 586.8495242700001V692.1752384l101.4247616 74.11809493h101.42476267v-709.97333333H145.31047573V660.9676192z m163.84-507.12381013l183.34476267 347.18476266c7.80190507 15.60380907 15.60380907 31.2076192 15.60380907 46.81142827 0 11.7028576 3.90095253 27.30666667 3.90095253 46.81142827v27.30666666c0 7.80190507-3.90095253 19.5047616-3.90095253 27.30666667s-7.80190507 11.7028576-15.60380907 19.50476267-19.5047616 3.90095253-31.2076192 3.90095146c-15.60380907 0-27.30666667-3.90095253-35.10857173-11.70285653s-11.7028576-19.5047616-11.70285654-39.00952427v-58.51428586H309.15047573V618.0571424c0 19.5047616 3.90095253 42.91047573 11.7028576 58.51428587 7.80190507 19.5047616 19.5047616 39.00952427 31.2076192 50.7123808 11.7028576 15.60380907 31.2076192 23.40571413 46.81142827 35.10857173 19.5047616 7.80190507 39.00952427 11.7028576 58.51428587 11.7028576 27.30666667 0 50.7123808-3.90095253 66.31619093-15.60381013 19.5047616-7.80190507 35.10857173-23.40571413 46.81142827-39.0095232s19.5047616-35.10857173 27.30666666-58.51428587c3.90095253-19.5047616 7.80190507-42.91047573 7.80190507-66.31619093v-42.91047574c0-11.7028576-3.90095253-23.40571413-3.90095253-35.10857173-3.90095253-11.7028576-3.90095253-19.5047616-11.7028576-31.2076192-3.90095253-11.7028576-11.7028576-23.40571413-19.5047616-39.0095232l-148.23619094-288.6704768h183.34476267v-101.4247616H309.15047573v97.52380907z m487.61904854 315.97714346c31.2076192 0 50.7123808 3.90095253 62.41523733 11.70285654 11.7028576 7.80190507 15.60380907 23.40571413 15.60381013 50.71238186V621.95809493c0 15.60380907-3.90095253 27.30666667-11.7028576 35.10857174s-19.5047616 15.60380907-35.10857173 15.60380906c-19.5047616 0-31.2076192-3.90095253-39.0095232-15.60380906-7.80190507-11.7028576-11.7028576-23.40571413-11.7028576-31.2076192v-58.51428587h-101.4247616V621.95809493c0 19.5047616 3.90095253 39.00952427 11.7028576 58.51428587s19.5047616 35.10857173 31.20761813 46.81142827 31.2076192 23.40571413 46.81142934 31.2076192c19.5047616 7.80190507 39.00952427 11.7028576 58.51428586 11.7028576 27.30666667 0 50.7123808-3.90095253 70.2171424-15.60381014 23.40571413-7.80190507 39.00952427-19.5047616 46.81142827-31.20761813 7.80190507-7.80190507 11.7028576-15.60380907 15.60381013-23.4057152 3.90095253-7.80190507 7.80190507-19.5047616 11.70285654-27.30666667s3.90095253-23.40571413 7.80190506-39.0095232c3.90095253-19.5047616 3.90095253-39.00952427 3.90095254-58.51428586v-58.51428587c0-15.60380907-3.90095253-27.30666667-7.80190507-39.0095232-3.90095253-11.7028576-11.7028576-19.5047616-19.5047616-27.30666667s-19.5047616-15.60380907-35.10857173-23.4057152c15.60380907-11.7028576 27.30666667-19.5047616 35.10857173-27.30666666s15.60380907-19.5047616 19.5047616-31.20761814 7.80190507-27.30666667 7.80190507-42.9104768v-120.9295232c0-15.60380907-3.90095253-27.30666667-3.90095254-39.00952426s-3.90095253-19.5047616-7.80190506-27.30666667l-11.70285654-23.40571413c-11.7028576-19.5047616-27.30666667-35.10857173-46.81142933-46.81142827-19.5047616-11.7028576-46.81142827-19.5047616-78.01904747-19.50476267-15.60380907 0-31.2076192 3.90095253-50.7123808 7.80190507s-35.10857173 15.60380907-46.81142826 27.30666667c-15.60380907 11.7028576-27.30666667 27.30666667-35.10857174 46.81142826-7.80190507 19.5047616-15.60380907 42.91047573-15.60380906 70.21714347v58.51428587H785.06666667v-54.61333334c0-15.60380907 3.90095253-27.30666667 11.7028576-39.00952426 7.80190507-11.7028576 19.5047616-15.60380907 35.10857066-15.60380907s27.30666667 3.90095253 35.10857174 15.60380907 11.7028576 23.40571413 11.7028576 42.91047573v101.42476267c0 15.60380907 0 23.40571413-3.90095254 35.10857066s-7.80190507 15.60380907-11.7028576 19.50476267l-23.40571413 11.70285653c-11.7028576 0-23.40571413 3.90095253-39.00952427 3.90095254v89.72190506z"  horiz-adv-x="1024" />

    
    <glyph glyph-name="yulan" unicode="&#58984;" d="M608-96H152c-66.24 0-120 53.76-120 120V744C32 810.24 85.76 864 152 864h576c66.24 0 120-53.76 120-120v-216c0-13.44-10.56-24-24-24s-24 10.56-24 24V744c0 39.84-32.16 72-72 72H152c-39.84 0-72-32.16-72-72v-720c0-39.84 32.16-72 72-72h456c13.44 0 24-10.56 24-24s-10.56-24-24-24zM680 624H200c-13.44 0-24 10.56-24 24s10.56 24 24 24h480c13.44 0 24-10.56 24-24s-10.56-24-24-24zM392 447.84H200c-13.44 0-24 10.56-24 24s10.56 24 24 24h192c13.44 0 24-10.56 24-24s-10.56-24-24-24zM296 272.15999999999997H200c-13.44 0-24 10.56-24 24s10.56 24 24 24h96c13.44 0 24-10.56 24-24s-10.56-24-24-24zM344 96H200c-13.44 0-24 10.56-24 24s10.56 24 24 24h144c13.44 0 24-10.56 24-24s-10.56-24-24-24zM632 24c-132.48 0-240 107.52-240 240s107.52 240 240 240 240-107.52 240-240-107.52-240-240-240z m0 432c-106.08 0-192-85.92-192-192s85.92-192 192-192 192 85.92 192 192-85.92 192-192 192zM968-96c-6.24 0-12.48 2.4-16.8 7.2l-177.6 177.6c-9.6 9.6-9.6 24.48 0 34.08s24.48 9.6 34.08 0l177.6-177.6c9.6-9.6 9.6-24.48 0-34.08-4.8-4.8-11.04-7.2-17.28-7.2z"  horiz-adv-x="1024" />

    
    <glyph glyph-name="select" unicode="&#59680;" d="M35.2-92.79999999999995V860.8H992V-96c-3.2 3.2-956.8 3.2-956.8 3.2zM921.6 793.6H102.4v-816h819.2V793.6zM512 169.60000000000002l-291.2 294.4L288 531.2l224-227.2 227.2 227.2 67.2-67.2z"  horiz-adv-x="1024" />

    
    <glyph glyph-name="wenzishezhi-" unicode="&#59004;" d="M882.688-39.70844445c-20.48 0-40.04977778 12.06044445-48.69688889 32.08533334l-0.11377778 0.11377778-115.48444444 269.08444444H310.04444445L189.66755555-8.305777779999971c-11.94666667-26.73777778-43.23555555-38.68444445-69.97333333-26.73777777s-38.68444445 43.23555555-26.73777777 69.97333333l328.81777777 736.82488889c11.49155555 25.82755555 32.42666667 45.62488889 58.82311111 55.75111111 26.39644445 10.12622222 55.18222222 9.32977778 81.00977778-2.16177778 24.34844445-10.92266667 43.69066667-30.37866667 54.15822222-54.95466667l315.61955556-736.14222222c11.49155555-26.85155555-0.91022222-58.02666667-27.76177778-69.51822222-6.82666667-2.95822222-13.88088889-4.43733333-20.93511111-4.43733334zM357.376 367.50222222h315.96088889l-154.73777778 361.01688889-161.22311111-361.01688889z"  horiz-adv-x="1024" />

    
    <glyph glyph-name="pingfen1" unicode="&#58977;" d="M991.14097778 438.37060779c34.4670811 33.49617778 15.53445888 92.23585223-32.03982223 99.51762887l-234.47324444 33.98163001c-18.93262222 2.91271111-35.43798557 14.56355555-43.69066666 32.03982222L575.59419221 816.05214777c-21.3598811 43.20521443-83.01226667 43.20521443-104.37214776 0L366.36444445 603.42423666c-8.2526811-16.99081443-24.75804445-29.12711111-43.69066667-32.03982223l-234.47324445-33.98162886c-47.5742811-6.79632555-66.99235555-65.536-32.03982222-99.51763002l169.90814777-165.5390811c13.59265223-13.59265223 19.90352555-32.52527445 16.50536334-51.45789667l-40.29250332-233.50234112c-8.2526811-47.5742811 41.74885888-83.98316999 84.46862222-61.16693333l209.7152 110.19757112c16.99081443 8.73813333 37.37979221 8.73813333 54.37060665 0l209.7152-110.19757112c42.71976334-22.33078557 92.72130333 13.59265223 84.46862222 61.16693333l-40.29250332 233.50234112c-3.39816334 18.93262222 2.91271111 38.35069667 16.50536334 51.45789667l169.90814777 166.02453334z m-223.79330333-109.7121189c-32.03982222-31.0689189-46.60337778-76.21594112-39.3216-120.39205888l33.49617778-194.66619335-174.76266666 91.7504c-19.41807445 10.19448889-41.26340779 15.53445888-63.10874112 15.53446001s-43.69066667-5.33996999-63.10874112-15.53446001l-174.76266667-91.7504 33.49617777 194.66619335c7.76723001 44.1761189-7.28177778 88.83768889-38.83614776 120.39205888L138.20207445 466.52681443l195.63709554 28.64166002c44.1761189 6.31087445 82.52681443 34.4670811 102.43034112 74.27413334l87.38133334 177.18992554 87.38133333-177.18992554c19.90352555-40.29250333 58.25422222-67.96325888 102.43034112-74.27413334l195.63709553-28.64166002-141.75193998-137.86832554zM591.12865223 198.55739221h-135.9265189c-21.3598811 0-38.83614777 17.47626667-38.83614776 38.83614891s17.47626667 38.83614777 38.83614776 38.83614777h135.9265189c21.3598811 0 38.83614777-17.47626667 38.83614777-38.83614777s-17.47626667-38.83614777-38.83614777-38.83614891z"  horiz-adv-x="1024" />

    
    <glyph glyph-name="RectangleCopy" unicode="&#58912;" d="M74.54962725 755.17001324v-742.34002648h861.64467358V755.17001324H74.54962725z m0 53.02428759h861.64467358a53.02428761 53.02428761 0 0 0 53.02428762-53.02428759v-742.34002648a53.02428761 53.02428761 0 0 0-53.02428762-53.02428759H74.54962725a53.02428761 53.02428761 0 0 0-53.0242876 53.02428759V755.17001324a53.02428761 53.02428761 0 0 0 53.0242876 53.02428759zM495.42991013 794.93822894h39.7682157v-821.87645788h-39.7682157z"  horiz-adv-x="1024" />

    
    <glyph glyph-name="sync1" unicode="&#58929;" d="M881.87 870.852l7.932-165.532C798.832 812.192 663.348 880 512 880 269.626 880 67.866 706.152 24.592 476.352 21.816 461.614 33.208 448 48.206 448h98.168c11.14 0 20.754 7.684 23.352 18.518C206.814 621.184 345.862 736 512 736c121.786 0 229.024-61.712 292.208-155.602l-203.06 9.73c-13.69 0.656-25.148-10.266-25.148-23.972v-94.822c0-13.254 10.746-24 24-24h400.666c13.254 0 24 10.746 24 24V872c0 13.254-10.746 24-24 24h-94.822c-13.706 0-24.63-11.458-23.974-25.148zM512 32c-121.79 0-229.034 61.716-292.218 155.61l203.736-9.742c13.69-0.654 25.146 10.268 25.146 23.972v94.824c0 13.254-10.746 24-24 24H24c-13.254 0-24-10.746-24-24V-104c0-13.254 10.746-24 24-24h94.77c13.726 0 24.656 11.49 23.97 25.198l-8.258 165.15C225.45-44.332 360.81-112 512-112c242.374 0 444.134 173.848 487.408 403.648 2.776 14.738-8.616 28.352-23.614 28.352h-98.168c-11.14 0-20.754-7.684-23.352-18.518C817.186 146.816 678.138 32 512 32z"  horiz-adv-x="1024" />

    
    <glyph glyph-name="tabs" unicode="&#58975;" d="M900.3614811 772.3614811H123.6385189a97.09036999 97.09036999 0 0 1-97.09037113-97.09036999v-582.54222222a97.09036999 97.09036999 0 0 1 97.09037113-97.09036999h776.7229622a97.09036999 97.09036999 0 0 1 97.09037113 97.09036999V675.27111111a97.09036999 97.09036999 0 0 1-97.09037113 97.09036999z m0-679.63259221H123.6385189V626.72592555a48.54518557 48.54518557 0 0 0 48.54518443 48.54518556h242.72592668a48.54518557 48.54518557 0 0 0 48.54518442-48.54518556v-97.09037a48.54518557 48.54518557 0 0 1 48.54518557-48.54518556h388.3614811z m0 485.45185223h-339.81629553V626.72592555a48.54518557 48.54518557 0 0 0 48.54518442 48.54518556h242.72592668a48.54518557 48.54518557 0 0 0 48.54518443-48.54518556z"  horiz-adv-x="1024" />

    


  </font>
</defs>
</svg>
